Alita Battle Angel 2019 720p HDCAM x264 Torrent Free Download

Seeders : 356   &   Leechers : 983      10-02-2019 (1 week)
Alita Battle Angel 2019 720p HDCAM x264 Torrent Download
Added: ago by moviezworldz ***** in Movies   1.0 GB   Hits : 15
Info Hash: F777DC1397C3AD10D2881DAE255B6ED882AE77E7 Download
Alita Battle Angel 2019 720p HDCAM x264 Torrent Download

Anonymous and Direct Download movies , software , shows...

Fast Safe Anonymous
movies, software, shows...
Alita: Battle Angel
Action /Adventure /Romance /Sci-Fi /Thriller  .   122 min   N/A/10
Director : Robert Rodriguez  
Tags: Alita  Battle  Angel  2019  720p  HDCAM  

Released:
14 Feb 2019
Alita is a creation from an age of despair. Found by the mysterious Dr. Ido while trolling for cyborg parts, Alita becomes a lethal, dangerous being. She cannot remember who she is, or where she came from. But to Dr. Ido, the truth is all too clear. She is the one .... See More being who can break the cycle of death and destruction left behind from Tiphares. But to accomplish her true purpose, she must fight and kill. And that is where Alita's true significance comes to bear. She is an angel from heaven. She is an angel of death.

Torrent Description







General
Format : Matroska
Format version : Version 4
File size : 1.01 GiB
Duration : 1 h 58 min
Overall bit rate : 1 219 kb/s

Video
ID : 1
Format : AVC
Format/Info : Advanced Video Codec
Format profile : [email protected]
Format settings : CABAC / 4 Ref Frames
Format settings, CABAC : Yes
Format settings, RefFrames : 4 frames
Codec ID : V_MPEG4/ISO/AVC
Duration : 1 h 58 min
Bit rate : 1 100 kb/s
Width : 1 280 pixels
Height : 536 pixels
Display aspect ratio : 2.40:1
Frame rate mode : Constant
Frame rate : 29.970 (30000/1001) FPS
Color space : YUV
Chroma subsampling : 4:2:0
Bit depth : 8 bits
Scan type : Progressive
Bits/(Pixel*Frame) : 0.053
Stream size : 923 MiB (89%)
Writing library : x264 core 157 r2935 545de2f

Audio
ID : 2
Format : AAC LC
Codec ID : A_AAC-2
Duration : 1 h 58 min
Bit rate : 128 kb/s
Channel(s) : 2 channels
Channel layout : L R
Sampling rate : 48.0 kHz
Frame rate : 46.875 FPS (1024 SPF)
Compression mode : Lossy
Delay relative to video : -21 ms
Stream size : 109 MiB (11%)
Language : English
Default : Yes
Forced : No


Click To View Image












Sharing Widget


No Comments For This Torrent . Be The First to Comment

You must Login to Comment . Click Here to Login

Menu 1

Some content in menu 1.

Alita Battle Angel 2019 720p HDCAM x264 [MW] (Size: 1.0 GB)
  Alita Battle Angel 2019 720p HDCAM x264 [MW] 1.0 GB
tracker name
udp://tracker.leechers-paradise.org:6969/announce
udp://zer0day.ch:1337/announce
udp://open.demonii.com:1337/announce
udp://tracker.coppersurfer.tk:6969/announce
udp://exodus.desync.com:6969/announce
µTorrent compatible trackers list

Relative Torrents

Torrent Name Size Age SEED LEECH
Manifest S01E16 Estimated Time of Departre 720p AMZN WEB-DL DD+5 1 H 264-AJP69
Posted by    EZTVag   in   TV
1.2 GB 5 minutes 599 194
Carson Daly 2019 02 18 Mark-Paul Gosselar WEB x264-CookieMonster [eztv]
Posted by    EZTVag   in   TV
276.0 MB 5 minutes 751 837
The Rainbow Bridge Motel 2018 1080p AMZNWEBRip DDP2 0 x264-iKA[TGx]
Posted by    mazemaze16   in   Movies
9.2 GB 6 minutes 805 753
Stargate Origins: Catherine (2018) [WEBRp] [720p] [YTS] [YIFY]
Posted by    YTSAGx   in   Movies
898.9 MB 12 minutes 192 951
CONSORTIUM Update 18 02 2019
Posted by    IGGGAMESCOM   in   Games
3.0 GB 16 minutes 628 334