Black Narcissus 1947 1080p BrRip x265 HE Torrent Free Download

Seeders : 964   &   Leechers : 110      11-02-2019 (5 days)
Black Narcissus 1947 1080p BrRip x265 HE Torrent Download
Added: ago by g3m696 ***** in Movies   881.9 MB   Hits : 17
Info Hash: 5E124C9F9D02FB4FF30C5C14D19BB40E17EA1721 Download
Black Narcissus 1947 1080p BrRip x265 HE Torrent Download

Anonymous and Direct Download movies , software , shows...

Fast Safe Anonymous
movies, software, shows...
Black Narcissus
Drama   .   101 min   8.0/10
Tags: Black  Narcissus  1947  1080p  BrRip  x265  

Released:
01 Dec 1947
Sister Clodagh, currently posted at the Convent of the Order of the Servants of Mary in Calcutta, has just been appointed the Sister Superior of the St. Faith convent, making her the youngest sister superior in the order. The appointment is despite the reservations.... See More of the Reverend Mother who believes Sister Clodagh not ready for such an assignment, especially because of its isolated location. The convent will be a new one located in the mountainside Palace of Mopu in the Himalayas, and is only possible through the donation by General Todo Rai of Mopu - "The Old General" - of the palace, where the Old General's father formerly kept his concubines. On the Old General's directive, the convent is to provide schooling to the children and young women, and general dispensary services to all native residents who live in the valley below the palace. Accompanying Sister Clodagh will be four of the other nuns, each chosen for a specific reason: Sister Briony for her strength, Sister Phillipa who is to tend to the garden for food, Sister Blanche - more commonly referred to as Sister Honey - for her general ability to spread happiness, and troubled Sister Ruth, who the Reverend Mother believes will truly find her faith from the change in locale. The palace comes with an elderly female caretaker, slightly off kilter Angu Ayah, and a holy man who meditates in solitude and silence outside the palace grounds night and day, he who is not to be disturbed. The General also provides a young boy, six year old Joseph Anthony, the General's cook's son, who will live at the convent to provide translation services. But the sisters' primary liaison to the General and the outside world is his agent, native Brit Mr. Dean, which may prove to be problematic in his gender and doing any work around the convent. Sister Clodagh faces early challenges in feeling the need to accept two people to the convent: seventeen year old Kanchi, who is pushing the boundaries of her sexuality; and the Old General's son, the "Young General", who wants the same educational opportunities, if not better, than that offered to his female counterparts. Beyond these issues, each of the sisters is challenged by this posting, from the cultural differences, to the isolation, to the general openness of their environment. Sister Clodagh, as the leader, feels that she has no one to turn to in her confusion, her thoughts turning back to her time in Ireland before joining the order and her love for a young man named Con that was partly the reason for her decision to devote her life to God. But it is Sister Ruth whose issues may be the most problematic as she is becoming unhinged in her growing romantic obsession with Mr. Dean, especially as jealousy emerges in she also believing that Sister Clodagh is falling in love with him as well, which may or may not be the case.

Torrent Description



hevcbay.com

Code:

General
Unique ID : 60568719821743854043936671103294900585 (0x2D911C7258B6CA56E28B9F85B5D00969)
Complete name : Black.Narcissus.1947.1080p.BrRip.x265.HEVCBay.com.mkv
Format : Matroska
Format version : Version 4
File size : 882 MiB
Duration : 1 h 40 min
Overall bit rate : 1 224 kb/s
Movie name : Black.Narcissus.1947.1080p.BrRip.x265.HEVCBay.com.mkv
Encoded date : UTC 2019-02-11 14:37:52
Writing application : hevcbay
Writing library : hevcbay.com / Lavf58.22.100
Comment : Encoded by hevcbay.com
ENCODED-BY : hevcbay.com

Video
ID : 1
Format : HEVC
Format/Info : High Efficiency Video Coding
Format profile : [email protected]@Main
Codec ID : V_MPEGH/ISO/HEVC
Duration : 1 h 40 min
Bit rate : 1 170 kb/s
Width : 1 472 pixels
Height : 1 080 pixels
Display aspect ratio : 4:3
Frame rate mode : Constant
Frame rate : 24.000 FPS
Color space : YUV
Chroma subsampling : 4:2:0
Bit depth : 8 bits
Bits/(Pixel*Frame) : 0.031
Stream size : 843 MiB (96%)
Writing library : Lavc58.40.100 libx265
Language : English
Default : No
Forced : No
Color range : Limited

Audio
ID : 2
Format : AAC LC SBR PS
Format/Info : Advanced Audio Codec Low Complexity with Spectral Band Replication and Parametric Stereo
Commercial name : HE-AACv2
Format settings : NBC
Codec ID : A_AAC-29
Duration : 1 h 40 min
Bit rate : 52.6 kb/s
Channel(s) : 2 channels
Channel layout : C
Sampling rate : 48.0 kHz
Frame rate : 23.438 FPS (2048 SPF)
Compression mode : Lossy
Delay relative to video : -148 ms
Stream size : 37.9 MiB (4%)
Writing library : Lavc58.40.100 libfdk_aac
Default : Yes
Forced : No

Text
ID : 3
Format : UTF-8
Codec ID : S_TEXT/UTF8
Codec ID/Info : UTF-8 Plain Text
Duration : 1 h 36 min
Bit rate : 54 b/s
Count of elements : 1070
Stream size : 38.4 KiB (0%)
Language : English
Default : Yes
Forced : No










Sharing Widget


No Comments For This Torrent . Be The First to Comment

You must Login to Comment . Click Here to Login

Menu 1

Some content in menu 1.

Black Narcissus 1947 1080p BrRip x265 HEVCBay (Size: 881.9 MB)
  Black Narcissus 1947 1080p BrRip x265 HEVCBay 881.9 MB
tracker name
udp://tracker.leechers-paradise.org:6969/announce
udp://zer0day.ch:1337/announce
udp://open.demonii.com:1337/announce
udp://tracker.coppersurfer.tk:6969/announce
udp://exodus.desync.com:6969/announce
µTorrent compatible trackers list

Relative Torrents

Torrent Name Size Age SEED LEECH
[Erai-raws] Gegege no Kitarou (2018) - 4 [1080p][Multiple Subtitle] mkv () - An
Posted by    Sour456Gol   in   Anime
814.5 MB 15 minutes 420 757
The Umbrella Academy - Season 1 - Mp4 x24 AC3 1080p
Posted by    TruthPhoenix   in   TV
14.4 GB 1 hour 380 602
Teenage Mutant Ninja Turtles Trilogy Pac - Tartarughe Ninja (1990-1993) BDRip 1
Posted by    ultraman2   in   Movies
4.8 GB 1 hour 262 388
Siren 2018 S02E04 Oil and Water 1080p AMN WEB-DL DDP5 1 H 264-NTb[TGx]
Posted by    mazemaze16   in   TV
2.8 GB 2 hours 534 384
Jumanji Welcome to the Jungle OPEN MATTE(2017) 1080p DTS x264 KK650
Posted by    themagicman   in   Movies
9.0 GB 2 hours 595 941