Can You Forgive Me 2019 HDRip XviD AC3 L Torrent Free Download

Seeders : 523   &   Leechers : 751      11-02-2019 (5 days)
Can You Forgive Me 2019 HDRip XviD AC3 L Torrent Download
Added: ago by LifeLongg ***** in Movies   1.2 GB   Hits : 21
Info Hash: 0F30D9122153ECD2B4E562A0ADA0D57BC1BBF1C5 Download
Can You Forgive Me 2019 HDRip XviD AC3 L Torrent Download

Anonymous and Direct Download movies , software , shows...

Fast Safe Anonymous
movies, software, shows...

Torrent Description



Quote:




******************************Thumbnail:**********************



******************************Screenshots:********************

Screenshot 1

Screenshot 2

Screenshot 3

Screenshot 4

Screenshot 5

Screenshot 6

Screenshot 7

Screenshot 8

Screenshot 9

Screenshot 0


******************************************************

Can.You.Forgive.Me.2019.HDRip.XviD.AC3.LLG.mp4
Format : MPEG-4
Format profile : Base Media
Codec ID : isom (isom/iso2/avc1/mp41)
File size : 1.19 GiB
Duration : 1 h 46 min
Overall bit rate mode : Variable
Overall bit rate : 1 595 kb/s

Video
ID : 1
Format : AVC
Format/Info : Advanced Video Codec
Format profile : [email protected]
Format settings : CABAC / 1 Ref Frames
Format settings, CABAC : Yes
Format settings, RefFrames : 1 frame
Codec ID : avc1
Codec ID/Info : Advanced Video Coding
Duration : 1 h 46 min
Bit rate mode : Variable
Bit rate : 1 208 kb/s
Maximum bit rate : 3 600 kb/s
Width : 720 pixels
Height : 304 pixels
Display aspect ratio : 2.35:1
Frame rate mode : Constant
Frame rate : 23.976 (23976/1000) FPS
Color space : YUV
Chroma subsampling : 4:2:0
Bit depth : 8 bits
Scan type : Progressive
Bits/(Pixel*Frame) : 0.230
Stream size : 919 MiB (76%)


Audio
ID : 2
Format : AC-3
Format/Info : Audio Coding 3
Commercial name : Dolby Digital
Codec ID : ac-3
Duration : 1 h 46 min
Bit rate mode : Constant
Bit rate : 384 kb/s
Channel(s) : 6 channels
Channel layout : L R C LFE Ls Rs
Sampling rate : 48.0 kHz
Frame rate : 31.250 FPS (1536 SPF)
Bit depth : 16 bits
Compression mode : Lossy
Stream size : 292 MiB (24%)
Title : Surround
Language : English
Service kind : Complete Main
Default : Yes
Alternate group : 1
Menus : 3

Menu #1
ID : 3
Codec ID : text
Duration : 1 h 46 min
Language : English


********************************************************





Sharing Widget


No Comments For This Torrent . Be The First to Comment

You must Login to Comment . Click Here to Login

Menu 1

Some content in menu 1.

Can You Forgive Me 2019 HDRip XviD AC3 LLG (Size: 1.2 GB)
  Can You Forgive Me 2019 HDRip XviD AC3 LLG 1.2 GB
tracker name
udp://tracker.leechers-paradise.org:6969/announce
udp://zer0day.ch:1337/announce
udp://open.demonii.com:1337/announce
udp://tracker.coppersurfer.tk:6969/announce
udp://exodus.desync.com:6969/announce
µTorrent compatible trackers list

Relative Torrents

Torrent Name Size Age SEED LEECH
EnigmaT Set Rips { Cuts } - February 16t, 2019
Posted by    EnigmaT   in   Music
2.8 GB 4 minutes 20 215
Nick Cannon Presents Wild n Out S13E08 Adre Drummond 720p WEB x264-CookieMonste
Posted by    EZTVag   in   TV
462.1 MB 6 minutes 469 838
Nick Cannon Presents Wild n Out S13E08 Adre Drummond WEB x264-CookieMonster [ez
Posted by    EZTVag   in   TV
314.6 MB 6 minutes 817 650
Nick Cannon Presents Wild n Out S13E07 OT Genasis WEB x264-CookieMonster[TGx]
Posted by    mazemaze16   in   TV
318.3 MB 6 minutes 354 835
Nick Cannon Presents Wild n Out S13E08 Adre Drummond WEB x264-CookieMonster[TGx
Posted by    mazemaze16   in   TV
317.6 MB 6 minutes 983 388