Destroyer 2019 DVDSCR XviD B4ND1T69 Torrent Free Download

Seeders : 822   &   Leechers : 100      11-02-2019 (5 days)
Destroyer 2019 DVDSCR XviD B4ND1T69 Torrent Download
Added: ago by B4ND1T69 ***** in Movies   768.8 MB   Hits : 17
Info Hash: 007B7A6411F8F4E0046FBD6762C1CA50812A8A86 Download
Destroyer 2019 DVDSCR XviD B4ND1T69 Torrent Download

Anonymous and Direct Download movies , software , shows...

Fast Safe Anonymous
movies, software, shows...
Destroyer
Action /Crime /Drama /Mystery /Thriller  .   121 min   6.7/10
Director : Karyn Kusama  
Tags: Destroyer  2019  DVDSCR  XviD  B4ND1T69  

Released:
27 Dec 2018
A police detective reconnects with people from an undercover assignment in her distant past in order to make peace.

Torrent Description



Destroyer.2019.DVDSCR.XviD.B4ND1T69



Director: Karyn Kusama
Writers: Phil Hay (screenplay), Matt Manfredi (screenplay)
Stars: Nicole Kidman, Toby Kebbell, Tatiana Maslany

Plot/Story:
Destroyer follows the moral and existential odyssey of LAPD detective Erin Bell who, as a young cop, was placed undercover with a gang in the California desert with tragic results. When the leader of that gang re-emerges many years later, she must work her way back through the remaining members and into her own history with them to finally reckon with the demons that destroyed her past.

General
Complete name : Destroyer.2019.DVDSCR.XviD.B4ND1T69.avi
Format : AVI
Format/Info : Audio Video Interleave
File size : 769 MiB
Duration : 2 h 0 min
Overall bit rate : 891 kb/s
Writing application : Lavf54.63.104
Subtitles : NA
Source : EVO...thanks.

Video
ID : 0
Format : MPEG-4 Visual
Format profile : Advanced [email protected]
Format settings, BVOP : 2
Format settings, QPel : No
Format settings, GMC : No warppoints
Format settings, Matrix : Default (H.263)
Codec ID : XVID
Codec ID/Hint : XviD
Duration : 2 h 0 min
Bit rate : 750 kb/s
Width : 688 pixels
Height : 288 pixels
Display aspect ratio : 2.40:1
Frame rate : 23.976 (24000/1001) FPS
Color space : YUV
Chroma subsampling : 4:2:0
Bit depth : 8 bits
Scan type : Progressive
Compression mode : Lossy
Bits/(Pixel*Frame) : 0.158
Stream size : 647 MiB (84%)
Writing library : XviD 64

Audio
ID : 1
Format : MPEG Audio
Format version : Version 1
Format profile : Layer 3
Codec ID : 55
Codec ID/Hint : MP3
Duration : 2 h 0 min
Bit rate mode : Constant
Bit rate : 128 kb/s
Channel(s) : 2 channels
Sampling rate : 48.0 kHz
Compression mode : Lossy
Stream size : 110 MiB (14%)
Alignment : Aligned on interleaves
Interleave, duration : 24 ms (0.58 video frame)

Screenshots:










Please Seed For As Long As Possible
Or At Least 1:1 Ratio...Thanks
Enjoy Peeps




Sharing Widget


No Comments For This Torrent . Be The First to Comment

You must Login to Comment . Click Here to Login

Menu 1

Some content in menu 1.

Destroyer 2019 DVDSCR XviD B4ND1T69 (Size: 768.8 MB)
  Destroyer 2019 DVDSCR XviD B4ND1T69 768.8 MB
tracker name
udp://tracker.leechers-paradise.org:6969/announce
udp://zer0day.ch:1337/announce
udp://open.demonii.com:1337/announce
udp://tracker.coppersurfer.tk:6969/announce
udp://exodus.desync.com:6969/announce
µTorrent compatible trackers list

Relative Torrents

Torrent Name Size Age SEED LEECH
[folk-rock, indie-folk] (2019) Steve Gun - The Unseen in Between [FLAC,Tracks]
Posted by    sisyphus   in   Music
297.0 MB 17 minutes 535 206
Love,Romance & Chocolate 2019 720p HDTV 264-Hallmark mp4
Posted by    Dbaum   in   Movies
1.5 GB 29 minutes 400 269
Oru Adaar Love (2019) Malayalam - HQ DVDcr - x264 - 700MB - Mp3 - MovCr [No Wat
Posted by    MovCr   in   Movies
740.5 MB 41 minutes 318 137
EnigmaT Set Rips { Cuts } - February 16t, 2019
Posted by    EnigmaT   in   Music
2.8 GB 50 minutes 20 215
Amavas (2019) Hindi PreDVDRip x264 AC3 [eam DRSD]
Posted by    Suryadipta   in   Movies
791.9 MB 1 hour 280 296