Marnie 1964 720p BrRip x265 HEVCBay Torrent Free Download

Seeders : 356   &   Leechers : 944      11-02-2019 (5 days)
Marnie 1964 720p BrRip x265 HEVCBay Torrent Download
Added: ago by g3m696 ***** in Movies   572.8 MB   Hits : 13
Info Hash: ADE6C7C9B1458F87DBECE59E627585F6CBCF6ADA Download
Marnie 1964 720p BrRip x265 HEVCBay Torrent Download

Anonymous and Direct Download movies , software , shows...

Fast Safe Anonymous
movies, software, shows...
Marnie
Crime /Drama /Mystery /Romance /Thriller  .   130 min   7.2/10
Director : Alfred Hitchcock  
Tags: Marnie  1964  720p  BrRip  x265  HEVCBay  

Released:
09 Nov 1964
Marnie Edgar is a habitual liar and a thief who gets jobs as a secretary and after a few months robs the firms in question, usually of several thousand dollars. When she gets a job at Rutland's, she also catches the eye of the handsome owner, Mark Rutland. He preve.... See More nts her from stealing and running off, as is her usual pattern, but also forces her to marry him. Their honeymoon is a disaster and she cannot stand to have a man touch her and on their return home, Mark has a private detective look into her past. When he has the details of what happened in her childhood to make her what she is, he arranges a confrontation with her mother realizing that reliving the terrible events that occurred in her childhood and bringing out those repressed memories is the only way to save her.

Torrent Description



hevcbay.com

Code:

General
Unique ID : 99421985751772706121390787154675556031 (0x4ACBFA5ADD3DBC9B5F3EC5AB30BCDEBF)
Complete name : Marnie.1964.720p.BrRip.x265.HEVCBay.com.mkv
Format : Matroska
Format version : Version 4
File size : 573 MiB
Duration : 2 h 10 min
Overall bit rate : 614 kb/s
Movie name : Marnie.1964.720p.BrRip.x265.HEVCBay.com.mkv
Encoded date : UTC 2019-02-11 00:37:46
Writing application : hevcbay
Writing library : hevcbay.com / Lavf58.22.100
Comment : Encoded by hevcbay.com
ENCODED-BY : hevcbay.com

Video
ID : 1
Format : HEVC
Format/Info : High Efficiency Video Coding
Format profile : [email protected]@Main
Codec ID : V_MPEGH/ISO/HEVC
Duration : 2 h 10 min
Bit rate : 565 kb/s
Width : 1 280 pixels
Height : 694 pixels
Display aspect ratio : 1.85:1
Original display aspect ratio : 1.85:1
Frame rate mode : Constant
Frame rate : 23.976 (23976/1000) FPS
Color space : YUV
Chroma subsampling : 4:2:0
Bit depth : 8 bits
Bits/(Pixel*Frame) : 0.027
Stream size : 527 MiB (92%)
Writing library : Lavc58.40.100 libx265
Default : Yes
Forced : No
Color range : Limited

Audio
ID : 2
Format : AAC LC SBR PS
Format/Info : Advanced Audio Codec Low Complexity with Spectral Band Replication and Parametric Stereo
Commercial name : HE-AACv2
Format settings : NBC
Codec ID : A_AAC-29
Duration : 2 h 10 min
Bit rate : 48.0 kb/s
Channel(s) : 2 channels
Channel layout : C
Sampling rate : 48.0 kHz
Frame rate : 23.438 FPS (2048 SPF)
Compression mode : Lossy
Delay relative to video : -148 ms
Stream size : 44.0 MiB (8%)
Writing library : Lavc58.40.100 libfdk_aac
Language : English
Default : Yes
Forced : No









Sharing Widget


No Comments For This Torrent . Be The First to Comment

You must Login to Comment . Click Here to Login

Menu 1

Some content in menu 1.

Marnie 1964 720p BrRip x265 HEVCBay (Size: 572.8 MB)
  Marnie 1964 720p BrRip x265 HEVCBay 572.8 MB
tracker name
udp://tracker.leechers-paradise.org:6969/announce
udp://zer0day.ch:1337/announce
udp://open.demonii.com:1337/announce
udp://tracker.coppersurfer.tk:6969/announce
udp://exodus.desync.com:6969/announce
µTorrent compatible trackers list

Relative Torrents

Torrent Name Size Age SEED LEECH
What Happened to Monday 2017 BDrip 1080px265 5 1 AAC D0ct0rLew[SEV]
Posted by    D0ct0rLew   in   Movies
10.0 GB 7 minutes 665 343
Gotham S05E06 13 Stitches 1080p NF WEBRi x265 AAC 5 1 D0ct0rLew[SEV]
Posted by    D0ct0rLew   in   TV
843.2 MB 10 minutes 752 169
Beasts of No Nation 2015 720p HDRip 900M x264-BONSAI[TGx]
Posted by    mazemaze16   in   Movies
897.8 MB 16 minutes 917 589
This Old House S40E14 720p HDTV x264-W4F[eztv]
Posted by    EZTVag   in   TV
741.7 MB 25 minutes 183 555
Back Roads 2018 720p AMZN WEB-DL DD5 1 H264 LLG
Posted by    LifeLongg   in   Movies
1.2 GB 25 minutes 87 534