Prospect 2019 HDRip XviD AC3 LLG Torrent Free Download

Seeders : 815   &   Leechers : 979      11-02-2019 (5 days)
Prospect 2019 HDRip XviD AC3 LLG Torrent Download
Added: ago by LifeLongg ***** in Movies   1.1 GB   Hits : 16
Info Hash: 5CF2F1D98738057B496E6B9E93A9B3B2094C218B Download
Prospect 2019 HDRip XviD AC3 LLG Torrent Download

Anonymous and Direct Download movies , software , shows...

Fast Safe Anonymous
movies, software, shows...
Prospect
Sci-Fi   .   98 min   6.9/10
Director : Christopher Caldwell  Zeek Earl  
Tags: Prospect  2019  HDRip  XviD  AC3  LLG  

Released:
02 Nov 2018
A teenage girl and her father travel to a remote alien moon, aiming to strike it rich. They've secured a contract to harvest a large deposit of the elusive gems hidden in the depths of the moon's toxic forest. But there are others roving the wilderness and the job .... See More quickly devolves into a fight to survive. Forced to contend not only with the forest's other ruthless inhabitants, but with her own ...

Torrent Description



Quote:




******************************Thumbnail:**********************



******************************Screenshots:********************

Screenshot 1

Screenshot 2

Screenshot 3

Screenshot 4

Screenshot 5

Screenshot 6

Screenshot 7

Screenshot 8

Screenshot 9

Screenshot 0


******************************************************

Prospect.2019.HDRip.XviD.AC3.LLG.mp4
Format : MPEG-4
Format profile : Base Media
Codec ID : isom (isom/iso2/avc1/mp41)
File size : 1.11 GiB
Duration : 1 h 39 min
Overall bit rate mode : Variable
Overall bit rate : 1 597 kb/s


Video
ID : 1
Format : AVC
Format/Info : Advanced Video Codec
Format profile : [email protected]
Format settings : CABAC / 1 Ref Frames
Format settings, CABAC : Yes
Format settings, RefFrames : 1 frame
Codec ID : avc1
Codec ID/Info : Advanced Video Coding
Duration : 1 h 39 min
Bit rate mode : Variable
Bit rate : 1 209 kb/s
Maximum bit rate : 3 600 kb/s
Width : 720 pixels
Height : 384 pixels
Display aspect ratio : 1.85:1
Frame rate mode : Constant
Frame rate : 24.000 FPS
Color space : YUV
Chroma subsampling : 4:2:0
Bit depth : 8 bits
Scan type : Progressive
Bits/(Pixel*Frame) : 0.182
Stream size : 863 MiB (76%)


Audio
ID : 2
Format : AC-3
Format/Info : Audio Coding 3
Commercial name : Dolby Digital
Codec ID : ac-3
Duration : 1 h 39 min
Bit rate mode : Constant
Bit rate : 384 kb/s
Channel(s) : 6 channels
Channel layout : L R C LFE Ls Rs
Sampling rate : 48.0 kHz
Frame rate : 31.250 FPS (1536 SPF)
Bit depth : 16 bits
Compression mode : Lossy
Stream size : 274 MiB (24%)
Title : Surround
Language : English
Service kind : Complete Main
Default : Yes
Alternate group : 1



********************************************************





Sharing Widget


No Comments For This Torrent . Be The First to Comment

You must Login to Comment . Click Here to Login

Menu 1

Some content in menu 1.

Prospect 2019 HDRip XviD AC3 LLG (Size: 1.1 GB)
  Prospect 2019 HDRip XviD AC3 LLG 1.1 GB
tracker name
udp://tracker.leechers-paradise.org:6969/announce
udp://zer0day.ch:1337/announce
udp://open.demonii.com:1337/announce
udp://tracker.coppersurfer.tk:6969/announce
udp://exodus.desync.com:6969/announce
µTorrent compatible trackers list

Relative Torrents

Torrent Name Size Age SEED LEECH
Back Roads 2018 720p AMZN WEB-DL DD5 1 H264 LLG
Posted by    LifeLongg   in   Movies
1.2 GB 3 minutes 87 534
Discarnate 2019 BRRip XviD AC3 LLG
Posted by    LifeLongg   in   Movies
976.8 MB 6 minutes 618 737
Love,Romance & Chocolate 2019 HDTV x264-allmark mp4
Posted by    Dbaum   in   Movies
907.4 MB 15 minutes 80 755
[folk-rock, indie-folk] (2019) Steve Gun - The Unseen in Between [FLAC,Tracks]
Posted by    sisyphus   in   Music
297.0 MB 33 minutes 535 206
Love,Romance & Chocolate 2019 720p HDTV 264-Hallmark mp4
Posted by    Dbaum   in   Movies
1.5 GB 45 minutes 400 269