Split Lip 2019 HDRip AC3 X264 LLG Torrent Free Download

Seeders : 107   &   Leechers : 637      11-02-2019 (5 days)
Split Lip 2019 HDRip AC3 X264 LLG Torrent Download
Added: ago by LifeLongg ***** in Movies   1.1 GB   Hits : 16
Info Hash: F0F7906353AE246A7F31705AFCCC720385926554 Download
Split Lip 2019 HDRip AC3 X264 LLG Torrent Download

Anonymous and Direct Download movies , software , shows...

Fast Safe Anonymous
movies, software, shows...
Split Lip
N/A   .   100 min   7.4/10
Director : Christopher Sheffield  
Writer: Christopher Sheffield  
Tags: Split  Lip  2019  HDRip  AC3  X264  

Released:
18 Jan 2019
In the underground world of contract killers, mistakes cannot be tolerated. Set "Doreé Seay", a top brutal mercenary with an icy exterior, finds out the hard way when one mistake sends her ...

Torrent Description



Quote:




******************************Thumbnail:**********************



******************************Screenshots:********************

Screenshot 1

Screenshot 2

Screenshot 3

Screenshot 4

Screenshot 5

Screenshot 6

Screenshot 7

Screenshot 8

Screenshot 9

Screenshot 0


******************************************************

Split.Lip.2019.HDRip.AC3.X264.LLG.mp4
Format : MPEG-4
Format profile : Base Media
Codec ID : isom (isom/iso2/avc1/mp41)
File size : 1.09 GiB
Duration : 1 h 40 min
Overall bit rate mode : Variable
Overall bit rate : 1 549 kb/s


Video
ID : 1
Format : AVC
Format/Info : Advanced Video Codec
Format profile : [email protected]
Format settings : CABAC / 1 Ref Frames
Format settings, CABAC : Yes
Format settings, RefFrames : 1 frame
Codec ID : avc1
Codec ID/Info : Advanced Video Coding
Duration : 1 h 40 min
Bit rate mode : Variable
Bit rate : 1 162 kb/s
Maximum bit rate : 3 600 kb/s
Width : 720 pixels
Height : 328 pixels
Display aspect ratio : 2.2:1
Frame rate mode : Constant
Frame rate : 23.976 (23976/1000) FPS
Color space : YUV
Chroma subsampling : 4:2:0
Bit depth : 8 bits
Scan type : Progressive
Bits/(Pixel*Frame) : 0.205
Stream size : 836 MiB (75%)


Audio
ID : 2
Format : AC-3
Format/Info : Audio Coding 3
Commercial name : Dolby Digital
Codec ID : ac-3
Duration : 1 h 40 min
Bit rate mode : Constant
Bit rate : 384 kb/s
Channel(s) : 6 channels
Channel layout : L R C LFE Ls Rs
Sampling rate : 48.0 kHz
Frame rate : 31.250 FPS (1536 SPF)
Bit depth : 16 bits
Compression mode : Lossy
Stream size : 276 MiB (25%)
Language : English
Service kind : Complete Main
Default : Yes
Alternate group : 1



********************************************************





Sharing Widget


No Comments For This Torrent . Be The First to Comment

You must Login to Comment . Click Here to Login

Menu 1

Some content in menu 1.

Split Lip 2019 HDRip AC3 X264 LLG (Size: 1.1 GB)
  Split Lip 2019 HDRip AC3 X264 LLG 1.1 GB
tracker name
udp://tracker.leechers-paradise.org:6969/announce
udp://zer0day.ch:1337/announce
udp://open.demonii.com:1337/announce
udp://tracker.coppersurfer.tk:6969/announce
udp://exodus.desync.com:6969/announce
µTorrent compatible trackers list

Relative Torrents

Torrent Name Size Age SEED LEECH
This Is Not Happening 2015 S04E13 HDTV x64-YesTV [eztv]
Posted by    EZTVag   in   TV
168.6 MB 1 minute 862 969
This Is Not Happening 2015 S04E13 720p HTV x264-YesTV [eztv]
Posted by    EZTVag   in   TV
533.2 MB 1 minute 659 635
Tropical Cop Tales S01E05 720p HDTV x264MiNDTHEGAP [eztv]
Posted by    EZTVag   in   TV
234.7 MB 1 minute 725 624
Comedy Central Stand-Up Featuring S01E11Marie Faustin WEB x264-CookieMonster[TG
Posted by    mazemaze16   in   TV
59.9 MB 1 minute 338 893
Comedy Central Stand-Up Featuring S01E12Stavros Halkias WEB x264-CookieMonster[
Posted by    mazemaze16   in   TV
82.3 MB 1 minute 396 536