The Hate U Give 2018 720p BluRay x264 Du Torrent Free Download

Seeders : 226   &   Leechers : 348      11-02-2019 (1 week)
The Hate U Give 2018 720p BluRay x264 Du Torrent Download
Added: ago by moviezworldz ***** in Movies   1.3 GB   Hits : 14
Info Hash: 230D158059C47BDB5AFAFC9BB7528E41016D0545 Download
The Hate U Give 2018 720p BluRay x264 Du Torrent Download

Anonymous and Direct Download movies , software , shows...

Fast Safe Anonymous
movies, software, shows...
The Hate U Give
Crime /Drama  .   133 min   7.1/10
Director : George Tillman Jr.  
Tags: The  Hate  U  Give  2018  720p  

Released:
19 Oct 2018
Starr witnesses the fatal shooting of her childhood best friend Khalil at the hands of a police officer. Now, facing pressure from all sides of the community, Starr must find her voice and stand up for what's right.

Torrent Description







General
Format : Matroska
Format version : Version 4
File size : 1.32 GiB
Duration : 2 h 13 min
Overall bit rate : 1 424 kb/s

Video
ID : 1
Format : AVC
Format/Info : Advanced Video Codec
Format profile : [email protected]
Format settings : CABAC / 4 Ref Frames
Format settings, CABAC : Yes
Format settings, RefFrames : 4 frames
Codec ID : V_MPEG4/ISO/AVC
Duration : 2 h 13 min
Bit rate : 1 050 kb/s
Width : 1 280 pixels
Height : 534 pixels
Display aspect ratio : 2.40:1
Original display aspect ratio : 2.40:1
Frame rate mode : Constant
Frame rate : 23.976 (24000/1001) FPS
Color space : YUV
Chroma subsampling : 4:2:0
Bit depth : 8 bits
Scan type : Progressive
Bits/(Pixel*Frame) : 0.064
Stream size : 999 MiB (74%)
Writing library : x264 core 157

Audio #1
ID : 2
Format : AC-3
Format/Info : Audio Coding 3
Commercial name : Dolby Digital
Codec ID : A_AC3
Duration : 2 h 13 min
Bit rate mode : Constant
Bit rate : 224 kb/s
Channel(s) : 6 channels
Channel layout : L R C LFE Ls Rs
Sampling rate : 48.0 kHz
Frame rate : 31.250 FPS (1536 SPF)
Bit depth : 16 bits
Compression mode : Lossy
Stream size : 213 MiB (16%)
Language : Hindi
Service kind : Complete Main
Default : Yes
Forced : No

Audio #2
ID : 3
Format : AAC LC
Codec ID : A_AAC-2
Duration : 2 h 13 min
Bit rate : 132 kb/s
Channel(s) : 2 channels
Channel layout : L R
Sampling rate : 48.0 kHz
Frame rate : 46.875 FPS (1024 SPF)
Compression mode : Lossy
Stream size : 128 MiB (9%)
Language : English
Default : No
Forced : No

Text #1
ID : 4
Format : UTF-8
Codec ID : S_TEXT/UTF8
Codec ID/Info : UTF-8 Plain Text
Duration : 2 h 12 min
Bit rate : 82 b/s
Count of elements : 2456
Stream size : 80.1 KiB (0%)
Default : Yes
Forced : No


Click To View Image










Sharing Widget


No Comments For This Torrent . Be The First to Comment

You must Login to Comment . Click Here to Login

Menu 1

Some content in menu 1.

The Hate U Give 2018 720p BluRay x264 Dual Audio [Hindi DD 5 1 - Engli (Size: 1.3 GB)
  The Hate U Give 2018 720p BluRay x264 Dual Audio [Hindi DD 5 1 - Engli 1.3 GB
tracker name
udp://tracker.leechers-paradise.org:6969/announce
udp://zer0day.ch:1337/announce
udp://open.demonii.com:1337/announce
udp://tracker.coppersurfer.tk:6969/announce
udp://exodus.desync.com:6969/announce
µTorrent compatible trackers list

Relative Torrents

Torrent Name Size Age SEED LEECH
Manifest S01E16 Estimated Time of Departre 720p AMZN WEB-DL DD+5 1 H 264-AJP69
Posted by    EZTVag   in   TV
1.2 GB 1 minute 599 194
Carson Daly 2019 02 18 Mark-Paul Gosselar WEB x264-CookieMonster [eztv]
Posted by    EZTVag   in   TV
276.0 MB 1 minute 751 837
The Rainbow Bridge Motel 2018 1080p AMZNWEBRip DDP2 0 x264-iKA[TGx]
Posted by    mazemaze16   in   Movies
9.2 GB 2 minutes 805 753
Stargate Origins: Catherine (2018) [WEBRp] [720p] [YTS] [YIFY]
Posted by    YTSAGx   in   Movies
898.9 MB 8 minutes 192 951
AmazingCultivationSimulator v0 94861 v0 4861
Posted by    IGGGAMESCOM   in   Games
260.7 MB 12 minutes 279 518